<?xml version="1.0" standalone="no"?>
<!DOCTYPE svg PUBLIC "-//W3C//DTD SVG 1.1//EN" "http://www.w3.org/Graphics/SVG/1.1/DTD/svg11.dtd" >
<svg xmlns="http://www.w3.org/2000/svg" xmlns:xlink="http://www.w3.org/1999/xlink" version="1.1">
<metadata>
Created by FontForge 20161013 at Mon Oct  5 01:39:52 2009
 By ,,,
HTF Knockout Copr. 1994-7 The Hoefler Type Foundry, Inc. http://www.typography.com
</metadata>
<defs>
<font id="Knockout-HTF48-Featherweight" horiz-adv-x="307" >
  <font-face 
    font-family="Knockout HTF48-Featherweight"
    font-weight="500"
    font-stretch="normal"
    units-per-em="1000"
    panose-1="0 0 0 0 0 0 0 0 0 0"
    ascent="800"
    descent="-200"
    x-height="480"
    cap-height="666"
    bbox="-221 -205 868 833"
    underline-thickness="61"
    underline-position="-232"
    unicode-range="U+0020-FB02"
  />
<missing-glyph horiz-adv-x="500" 
 />
    <glyph glyph-name=".notdef" horiz-adv-x="500" 
 />
    <glyph glyph-name=".null" horiz-adv-x="0" 
 />
    <glyph glyph-name="nonmarkingreturn" horiz-adv-x="333" 
 />
    <glyph glyph-name="space" unicode=" " horiz-adv-x="132" 
 />
    <glyph glyph-name="exclam" unicode="!" horiz-adv-x="166" 
d="M129 377l-32 -201h-29l-32 201v289h93v-289zM123 0h-81v109h81v-109z" />
    <glyph glyph-name="quotedbl" unicode="&#x22;" horiz-adv-x="218" 
d="M222 666l-63 -197h-49l43 197h69zM115 666l-50 -197h-47l29 197h68z" />
    <glyph glyph-name="numbersign" unicode="#" horiz-adv-x="476" 
d="M471 428h-109l-30 -191h114v-50h-122l-28 -187h-56l28 187h-103l-27 -187h-56l28 187h-103v50h111l29 191h-115v51h123l28 187h56l-28 -187h103l28 187h56l-28 -187h101v-51zM306 428h-103l-29 -191h102z" />
    <glyph glyph-name="dollar" unicode="$" horiz-adv-x="356" 
d="M142 672v73h74v-70q51 -11 81 -51t30 -99v-60h-91v61q0 63 -51 63q-23 0 -37 -14.5t-14 -41.5q0 -12 2 -23t3.5 -19t7.5 -20t8 -17t12.5 -19t13 -17.5t16.5 -21t17 -21.5q29 -33 43 -51t34.5 -49t29.5 -61.5t9 -63.5q0 -64 -31 -105t-83 -53v-72h-74v71q-54 11 -84 50
t-30 100v59h92v-59q0 -66 56 -66q27 0 41.5 16.5t14.5 45.5q0 41 -19.5 76t-64.5 85q-114 121 -114 216q0 60 28 103t80 55z" />
    <glyph glyph-name="percent" unicode="%" horiz-adv-x="496" 
d="M202 432q0 -43 -25 -68.5t-64 -25.5q-38 0 -63 25.5t-25 68.5v152q0 43 25 68.5t63 25.5q39 0 64 -25.5t25 -68.5v-152zM452 658l-370 -678l-36 26l370 679zM472 80q0 -43 -24.5 -68.5t-63.5 -25.5q-38 0 -63 25.5t-25 68.5v153q0 43 24.5 68t63.5 25t63.5 -25t24.5 -68
v-153zM143 419v178q0 13 -8.5 21.5t-21.5 8.5q-12 0 -20 -8.5t-8 -21.5v-178q0 -13 8 -21.5t20 -8.5q13 0 21.5 8.5t8.5 21.5zM414 67v179q0 13 -8.5 21t-21.5 8t-21 -8t-8 -21v-179q0 -13 8 -21t21 -8t21.5 8t8.5 21z" />
    <glyph glyph-name="ampersand" unicode="&#x26;" horiz-adv-x="475" 
d="M466 96q0 -53 -22.5 -80.5t-63.5 -27.5q-46 0 -91 47q-49 -47 -118 -47q-64 0 -105 47.5t-41 118.5q0 120 109 208q-32 81 -32 149q0 77 37 122t100 45q57 0 87 -39t30 -103q0 -104 -116 -198q36 -117 58 -159q40 74 40 162h78q-1 -57 -20 -123t-51 -114q20 -28 42 -28
q26 0 26 34v42h53v-56zM272 531q0 56 -35 56q-43 0 -43 -70q0 -42 18 -104q60 53 60 118zM235 99q-36 57 -70 172q-42 -40 -42 -106q0 -41 17.5 -63.5t49.5 -22.5q27 0 45 20z" />
    <glyph glyph-name="quotesingle" unicode="'" horiz-adv-x="145" 
d="M149 666l-70 -197h-51l35 197h86z" />
    <glyph glyph-name="parenleft" unicode="(" horiz-adv-x="268" 
d="M267 -122l-26 -26q-171 154 -171 452t171 452l26 -26q-56 -71 -83 -170.5t-27 -255.5t27 -255.5t83 -170.5z" />
    <glyph glyph-name="parenright" unicode=")" horiz-adv-x="268" 
d="M198 304q0 -298 -170 -452l-26 26q55 72 82.5 171.5t27.5 254.5t-27.5 254.5t-82.5 171.5l26 26q170 -154 170 -452z" />
    <glyph glyph-name="asterisk" unicode="*" horiz-adv-x="262" 
d="M240 503l-14 -25q-4 -7 -16 -2q-37 23 -63 47q9 -44 9 -79q0 -12 -9 -12h-30q-9 0 -9 12q0 39 9 79q-34 -31 -64 -47q-10 -7 -15 1l-15 26q-4 7 6 14q37 20 72 31q-44 14 -72 32q-11 6 -7 14l15 26q5 8 16 1q32 -19 63 -46q-10 41 -10 78q0 12 10 12h30q9 0 9 -12
q0 -39 -9 -78q36 31 64 47q11 6 15 -2l15 -26q5 -9 -6 -13q-35 -20 -72 -32q38 -12 72 -31q10 -6 6 -15z" />
    <glyph glyph-name="plus" unicode="+" horiz-adv-x="302" 
d="M273 304h-86v-92h-72v92h-86v72h86v91h72v-91h86v-72z" />
    <glyph glyph-name="comma" unicode="," horiz-adv-x="148" 
d="M115 11q0 -43 -23 -70t-66 -27v26q45 0 45 60h-39v118h83v-107z" />
    <glyph glyph-name="hyphen" unicode="-" horiz-adv-x="216" 
d="M197 271h-178v75h178v-75z" />
    <glyph glyph-name="period" unicode="." horiz-adv-x="148" 
d="M115 0h-83v118h83v-118z" />
    <glyph glyph-name="slash" unicode="/" horiz-adv-x="233" 
d="M236 729l-181 -793h-59l181 793h59z" />
    <glyph glyph-name="zero" unicode="0" horiz-adv-x="369" 
d="M334 140q0 -68 -41 -110t-109 -42q-67 0 -108.5 42t-41.5 110v386q0 68 41.5 110t108.5 42q68 0 109 -42t41 -110v-386zM236 131v404q0 21 -14.5 35t-37.5 14t-37 -14t-14 -35v-404q0 -21 14 -35t37 -14t37.5 14t14.5 35z" />
    <glyph glyph-name="one" unicode="1" horiz-adv-x="213" 
d="M156 0h-99v620q45 0 45 46h54v-666z" />
    <glyph glyph-name="two" unicode="2" horiz-adv-x="331" 
d="M311 520q0 -63 -26 -120.5t-83 -126.5q-75 -115 -75 -179h179v-94h-287v29q0 69 23.5 130.5t93.5 169.5q47 65 65 107.5t18 91.5q0 59 -51 59q-50 0 -50 -58v-77h-89v82q0 60 36 102t101 42q75 0 110 -43.5t35 -114.5z" />
    <glyph glyph-name="three" unicode="3" horiz-adv-x="335" 
d="M308 130q0 -63 -40 -102.5t-106 -39.5t-101.5 40t-35.5 99v73h89v-65q0 -55 48 -55q49 0 49 51v130q0 36 -38 36h-46v79h46q38 0 38 37v121q0 52 -49 52q-48 0 -48 -55v-66h-89v73q0 59 35.5 99.5t101.5 40.5t106 -39.5t40 -102.5v-103q0 -36 -17.5 -61t-48.5 -33
q66 -23 66 -93v-116z" />
    <glyph glyph-name="four" unicode="4" horiz-adv-x="331" 
d="M320 138h-45v-138h-92v138h-173v75l182 453h83v-443h45v-85zM183 223v216l-83 -216h83z" />
    <glyph glyph-name="five" unicode="5" horiz-adv-x="336" 
d="M313 666q-3 -52 -18 -72.5t-48 -20.5h-115l-9 -177q31 42 93 42q43 0 69.5 -29.5t26.5 -76.5v-200q0 -66 -40 -105t-108 -39q-64 0 -99.5 41t-35.5 98v67h88v-59q0 -25 13 -40t36 -15q49 0 49 53v183q0 20 -11.5 32.5t-29.5 12.5q-21 0 -35 -13.5t-18 -33.5l-87 12
l16 340h263z" />
    <glyph glyph-name="six" unicode="6" horiz-adv-x="353" 
d="M326 139q0 -68 -39.5 -109.5t-106.5 -41.5t-106.5 42t-39.5 109v386q0 69 40 111t108 42q64 0 101 -41.5t37 -98.5v-67h-87v60q0 55 -52 55q-50 0 -50 -55v-169q33 42 92 42q48 0 75.5 -29.5t27.5 -77.5v-158zM230 127v155q0 46 -49 46q-23 0 -36.5 -13t-13.5 -33v-152
q0 -22 13.5 -36t35.5 -14q23 0 36.5 13t13.5 34z" />
    <glyph glyph-name="seven" unicode="7" horiz-adv-x="320" 
d="M311 616q-71 -178 -105 -318t-38 -298h-108q6 139 48.5 291t102.5 279h-190v96h290v-50z" />
    <glyph glyph-name="eight" unicode="8" horiz-adv-x="359" 
d="M327 130q0 -64 -40 -103t-108 -39q-67 0 -107 39t-40 103v109q0 71 53 97q-52 26 -52 97v103q0 64 39.5 103t106.5 39q68 0 107.5 -39t39.5 -103v-103q0 -71 -53 -97q54 -27 54 -97v-109zM231 414v120q0 24 -14.5 38t-37.5 14q-22 0 -36.5 -14t-14.5 -38v-120
q0 -20 13.5 -34t37.5 -14t38 14t14 34zM231 132v125q0 21 -13.5 34.5t-38.5 13.5q-24 0 -37.5 -14t-13.5 -34v-125q0 -24 14.5 -38t36.5 -14q23 0 37.5 14t14.5 38z" />
    <glyph glyph-name="nine" unicode="9" horiz-adv-x="360" 
d="M326 139q0 -68 -41.5 -109.5t-108.5 -41.5q-66 0 -104 40t-38 98v62h87v-53q0 -55 55 -55q53 0 53 54v162q-33 -42 -90 -42q-49 0 -77.5 31t-28.5 79v163q0 68 39.5 109.5t106.5 41.5q68 0 107.5 -42t39.5 -110v-387zM229 375v162q0 21 -13 35t-37 14q-23 0 -36.5 -13.5
t-13.5 -33.5v-164q0 -20 13 -33t37 -13q23 0 36.5 13t13.5 33z" />
    <glyph glyph-name="colon" unicode=":" horiz-adv-x="148" 
d="M115 315h-83v118h83v-118zM115 0h-83v118h83v-118z" />
    <glyph glyph-name="semicolon" unicode=";" horiz-adv-x="148" 
d="M115 315h-83v118h83v-118zM115 11q0 -43 -23 -70t-66 -27v26q45 0 45 60h-39v118h83v-107z" />
    <glyph glyph-name="less" unicode="&#x3c;" horiz-adv-x="423" 
d="M352 125l-301 197v23l301 196v-89l-180 -118l180 -120v-89z" />
    <glyph glyph-name="equal" unicode="=" horiz-adv-x="288" 
d="M266 375h-245v75h245v-75zM266 229h-245v76h245v-76z" />
    <glyph glyph-name="greater" unicode="&#x3e;" horiz-adv-x="423" 
d="M372 322l-301 -196v89l180 118l-180 119v89l301 -197v-22z" />
    <glyph glyph-name="question" unicode="?" horiz-adv-x="309" 
d="M294 524q0 -105 -83 -209q-43 -55 -43 -130h-69q0 55 14 96.5t54 116.5q32 61 32 117q0 38 -11.5 54.5t-36.5 16.5q-48 0 -48 -61v-71h-87v79q0 65 34.5 105t100.5 40q73 0 108 -42.5t35 -111.5zM173 0h-81v109h81v-109z" />
    <glyph glyph-name="at" unicode="@" horiz-adv-x="530" 
d="M510 330q0 -80 -38.5 -137t-104.5 -57q-34 0 -52.5 19t-17.5 53q-13 -30 -36 -47t-48 -17q-32 0 -52.5 25.5t-20.5 68.5q0 66 39.5 126t93.5 60q48 0 53 -48l13 42h64l-50 -173q-19 -68 28 -68q37 0 61 42.5t24 111.5q0 95 -54 153.5t-138 58.5q-90 0 -149 -75t-59 -186
q0 -112 58.5 -183t149.5 -71q85 0 140 55l25 -30q-65 -65 -165 -65q-108 0 -180.5 81t-72.5 213q0 130 73 216t180 86q59 0 105.5 -23.5t74 -61t42 -81t14.5 -88.5zM314 339q0 41 -29 41q-33 0 -57.5 -46.5t-24.5 -91.5q0 -50 34 -50q38 0 56 67z" />
    <glyph glyph-name="A" unicode="A" horiz-adv-x="347" 
d="M343 0h-108l-17 130h-97l-20 -130h-97l111 666h117zM206 219l-33 272l-39 -272h72z" />
    <glyph glyph-name="B" unicode="B" horiz-adv-x="367" 
d="M339 129q0 -65 -35 -97t-93 -32h-174v666h172q58 0 93 -32t35 -97v-97q0 -80 -66 -100q68 -22 68 -100v-111zM235 423v109q0 43 -37 43h-54v-198h50q41 0 41 46zM236 134v115q0 47 -41 47h-51v-205h56q36 0 36 43z" />
    <glyph glyph-name="C" unicode="C" horiz-adv-x="365" 
d="M342 141q0 -69 -39.5 -111t-111.5 -42t-116.5 45t-44.5 114v372q0 69 44.5 114t116.5 45t111.5 -42t39.5 -111v-96h-94v98q0 25 -14 40t-41 15t-41 -15t-14 -39v-390q0 -24 14 -39t41 -15t41 15t14 40v99h94v-97z" />
    <glyph glyph-name="D" unicode="D" horiz-adv-x="382" 
d="M351 155q0 -75 -40 -115t-112 -40h-162v666h162q72 0 112 -42t40 -117v-352zM245 157v351q0 63 -53 63h-49v-477h49q53 0 53 63z" />
    <glyph glyph-name="E" unicode="E" horiz-adv-x="323" 
d="M303 0h-266v666h266v-94h-160v-184h111v-88h-111v-203h160v-97z" />
    <glyph glyph-name="F" unicode="F" horiz-adv-x="308" 
d="M296 574h-153v-192h115v-91h-115v-291h-106v666h259v-92z" />
    <glyph glyph-name="G" unicode="G" horiz-adv-x="375" 
d="M348 0h-57l-16 45q-27 -57 -102 -57q-65 0 -104 42.5t-39 110.5v384q0 64 44 108.5t116 44.5q71 0 112 -43.5t41 -109.5v-89h-100v95q0 22 -13.5 36.5t-39.5 14.5q-25 0 -39 -15t-14 -37v-396q0 -23 14.5 -38t39.5 -15q26 0 40 15t14 38v119h-52v80h155v-333z" />
    <glyph glyph-name="H" unicode="H" horiz-adv-x="398" 
d="M361 0h-106v280h-112v-280h-106v666h106v-289h112v289h106v-666z" />
    <glyph glyph-name="I" unicode="I" horiz-adv-x="181" 
d="M143 0h-106v666h106v-666z" />
    <glyph glyph-name="J" unicode="J" horiz-adv-x="350" 
d="M316 142q0 -70 -40 -112t-110 -42q-69 0 -109.5 41t-40.5 109v127h101v-129q0 -52 47 -52q46 0 46 52v530h106v-524z" />
    <glyph glyph-name="K" unicode="K" horiz-adv-x="369" 
d="M362 0h-109l-74 277l-36 -96v-181h-106v666h106v-313l110 313h105l-107 -283z" />
    <glyph glyph-name="L" unicode="L" 
d="M296 0h-259v666h106v-570h153v-96z" />
    <glyph glyph-name="M" unicode="M" horiz-adv-x="510" 
d="M473 0h-100v495l-21 -140l-62 -355h-80l-59 355l-20 140v-495h-94v666h143l58 -337l18 -129l19 129l57 337h141v-666z" />
    <glyph glyph-name="N" unicode="N" horiz-adv-x="400" 
d="M363 0h-82l-112 302l-37 102v-404h-96v666h94l104 -305l34 -103v408h95v-666z" />
    <glyph glyph-name="O" unicode="O" horiz-adv-x="380" 
d="M349 146q0 -70 -43.5 -114t-115.5 -44t-115.5 44t-43.5 114v374q0 70 44 114t115 44t115 -44t44 -114v-374zM242 138v390q0 24 -14 39t-38 15t-38 -15t-14 -39v-390q0 -24 14 -39t38 -15t38 15t14 39z" />
    <glyph glyph-name="P" unicode="P" horiz-adv-x="357" 
d="M337 397q0 -67 -35 -100.5t-95 -33.5h-64v-263h-106v666h170q60 0 95 -34t35 -101v-134zM234 392v139q0 44 -36 44h-55v-227h55q36 0 36 44z" />
    <glyph glyph-name="Q" unicode="Q" horiz-adv-x="381" 
d="M382 0q-18 -12 -49 -12q-38 0 -60 24q-37 -24 -87 -24q-69 0 -112 44t-43 112v378q0 68 44 112t115 44t115 -44t44 -112v-379q0 -37 -14 -63q13 -13 47 -13v-67zM241 162v369q0 22 -13.5 36.5t-37.5 14.5t-38 -14.5t-14 -36.5v-396q0 -22 14 -36.5t38 -14.5q19 0 30 8
l-25 23z" />
    <glyph glyph-name="R" unicode="R" horiz-adv-x="372" 
d="M360 -3h-65q-57 0 -57 92v143q0 21 -11 35t-32 14h-52v-281h-106v666h170q59 0 95 -33t36 -98v-118q0 -71 -63 -94q65 -23 65 -92v-136q0 -42 20 -68v-30zM234 411v121q0 43 -36 43h-55v-211h51q40 0 40 47z" />
    <glyph glyph-name="S" unicode="S" horiz-adv-x="353" 
d="M332 152q0 -77 -44 -120.5t-112 -43.5q-72 0 -114 41t-42 112v59h97v-57q0 -66 56 -66t56 60q0 41 -20 77t-65 83q-119 119 -119 218q0 71 40.5 117t114.5 46q66 0 106.5 -42t40.5 -111v-60h-96v60q0 29 -13 45.5t-38 16.5q-24 0 -38 -14.5t-14 -39.5q0 -45 19 -75.5
t72 -87.5q113 -116 113 -218z" />
    <glyph glyph-name="T" unicode="T" horiz-adv-x="327" 
d="M318 569h-101v-569h-106v569h-103v97h310v-97z" />
    <glyph glyph-name="U" unicode="U" horiz-adv-x="382" 
d="M347 138q0 -67 -43.5 -108.5t-111.5 -41.5t-112.5 41.5t-44.5 108.5v528h107v-530q0 -53 50 -53q52 0 52 53v530h103v-528z" />
    <glyph glyph-name="V" unicode="V" horiz-adv-x="354" 
d="M350 666l-122 -666h-103l-120 666h109l65 -466l69 466h102z" />
    <glyph glyph-name="W" unicode="W" horiz-adv-x="513" 
d="M511 666l-106 -666h-94l-55 396l-61 -396h-93l-97 666h105l48 -445l63 445h82l56 -445l54 445h98z" />
    <glyph glyph-name="X" unicode="X" horiz-adv-x="359" 
d="M351 0h-109l-65 232l-70 -232h-103l114 333l-107 333h110l60 -237l68 237h102l-110 -321z" />
    <glyph glyph-name="Y" unicode="Y" horiz-adv-x="349" 
d="M352 666l-127 -398v-268h-106v268l-120 398h108l71 -279l69 279h105z" />
    <glyph glyph-name="Z" unicode="Z" horiz-adv-x="328" 
d="M314 629l-179 -533h171v-96h-295v37l181 534h-170v95h292v-37z" />
    <glyph glyph-name="bracketleft" unicode="[" horiz-adv-x="246" 
d="M251 -133h-171v874h171v-64h-100v-746h100v-64z" />
    <glyph glyph-name="backslash" unicode="\" horiz-adv-x="235" 
d="M238 -64h-58l-182 793h59z" />
    <glyph glyph-name="bracketright" unicode="]" horiz-adv-x="246" 
d="M168 -133h-171v64h101v746h-101v64h171v-874z" />
    <glyph glyph-name="asciicircum" unicode="^" horiz-adv-x="241" 
d="M231 548q-21 -7 -39 -7q-59 0 -74 71q-15 -71 -75 -71q-13 0 -34 7v26q24 0 45.5 23.5t32.5 68.5h66q11 -45 32.5 -68.5t45.5 -23.5v-26z" />
    <glyph glyph-name="underscore" unicode="_" horiz-adv-x="298" 
d="M298 -76h-298v76h298v-76z" />
    <glyph glyph-name="grave" unicode="`" horiz-adv-x="156" 
d="M132 535h-51l-70 132h86z" />
    <glyph glyph-name="a" unicode="a" horiz-adv-x="301" 
d="M284 -8h-21q-51 0 -65 52q-28 -52 -86 -52q-43 0 -68.5 31t-25.5 86v23q0 61 41 98t119 66v74q0 38 -33 38q-32 0 -32 -40v-42h-81v38q0 55 30 89t87 34t86 -35.5t29 -94.5v-274q0 -23 20 -24v-67zM178 112v116q-75 -26 -75 -83v-38q0 -42 33 -42q18 0 30 13.5t12 33.5z
" />
    <glyph glyph-name="b" unicode="b" horiz-adv-x="314" 
d="M285 105q0 -50 -24.5 -81.5t-67.5 -31.5q-59 0 -82 55l-9 -47h-68v666h89v-233q26 54 79 54q38 0 60.5 -31t22.5 -79v-272zM198 116v244q0 48 -37 48q-17 0 -27.5 -12.5t-10.5 -33.5v-247q0 -21 10.5 -33.5t26.5 -12.5q17 0 27.5 12.5t10.5 34.5z" />
    <glyph glyph-name="c" unicode="c" horiz-adv-x="291" 
d="M269 129q0 -64 -31 -100.5t-86 -36.5t-89 37t-34 100v220q0 62 34 100t89 38t86 -37t31 -100v-46h-75v60q0 21 -10.5 33t-28.5 12t-28.5 -12.5t-10.5 -34.5v-246q0 -46 39 -46q18 0 28.5 12t10.5 33v59h75v-45z" />
    <glyph glyph-name="d" unicode="d" horiz-adv-x="314" 
d="M280 0h-71l-6 47q-23 -55 -81 -55q-43 0 -68 31t-25 82v269q0 49 24.5 81t62.5 32q46 0 75 -42v221h89v-666zM191 115v248q0 21 -10 33.5t-27 12.5q-38 0 -38 -48v-245q0 -22 10.5 -34.5t27.5 -12.5q16 0 26.5 12.5t10.5 33.5z" />
    <glyph glyph-name="e" unicode="e" horiz-adv-x="298" 
d="M272 127q0 -61 -32.5 -98t-86.5 -37t-89 37.5t-35 98.5v223q0 60 35 98t89 38t86.5 -37.5t32.5 -98.5v-123h-156v-114q0 -44 38 -44t38 44v59h80v-46zM191 279v85q0 45 -37 45q-18 0 -28 -12t-10 -33v-85h75z" />
    <glyph glyph-name="f" unicode="f" horiz-adv-x="208" 
d="M200 399h-52v-399h-90v399h-44v78h44v46q0 143 121 143h24v-75h-14q-44 0 -44 -50v-64h55v-78z" />
    <glyph glyph-name="g" unicode="g" horiz-adv-x="306" 
d="M311 493q0 -27 -12 -42t-31 -15q-13 0 -27 7q35 -37 35 -85v-62q0 -56 -34.5 -92t-88.5 -36q-17 0 -25 3q-13 0 -21.5 -10t-8.5 -23q0 -33 65 -33t97.5 -29t32.5 -82v-38q0 -59 -36 -93.5t-100 -34.5q-60 0 -98 30.5t-38 82.5v35q0 52 50 72q-22 8 -34.5 26.5t-12.5 40.5
q0 25 18 46.5t44 25.5q-27 11 -41 42.5t-14 70.5v59q0 55 35 91.5t87 36.5q14 0 29 -3t17 -3q44 0 44 48h65q3 -17 3 -36zM192 282v87q0 19 -10.5 31t-28.5 12t-28 -12t-10 -31v-87q0 -19 10 -31t28 -12t28.5 12.5t10.5 30.5zM213 -52v42q0 42 -55 42q-54 0 -54 -42v-43
q0 -19 14 -31t40 -12q27 0 41 12.5t14 31.5z" />
    <glyph glyph-name="h" unicode="h" horiz-adv-x="319" 
d="M287 0h-89v367q0 19 -9.5 30.5t-25.5 11.5q-17 0 -28.5 -17.5t-11.5 -36.5v-355h-89v666h89v-240q25 61 82 61q38 0 60 -28.5t22 -76.5v-382z" />
    <glyph glyph-name="i" unicode="i" horiz-adv-x="158" 
d="M121 541h-85v93h85v-93zM123 0h-89v480h89v-480z" />
    <glyph glyph-name="j" unicode="j" horiz-adv-x="157" 
d="M121 541h-85v93h85v-93zM123 -29q0 -68 -27.5 -102.5t-89.5 -34.5h-23v74h10q23 0 32 10t9 33v529h89v-509z" />
    <glyph glyph-name="k" unicode="k" horiz-adv-x="305" 
d="M297 0h-88l-55 196l-30 -68v-128h-90v666h90v-412l79 227h86l-77 -210z" />
    <glyph glyph-name="l" unicode="l" horiz-adv-x="158" 
d="M123 0h-89v666h89v-666z" />
    <glyph glyph-name="m" unicode="m" horiz-adv-x="463" 
d="M431 0h-89v367q0 39 -30 39q-16 0 -25 -17t-9 -37v-352h-90v370q0 17 -8 28t-21 11q-17 0 -26.5 -17t-9.5 -37v-355h-89v480h79l7 -62q21 69 78 69q54 0 72 -67q22 67 80 67q38 0 59.5 -28t21.5 -77v-382z" />
    <glyph glyph-name="n" unicode="n" horiz-adv-x="320" 
d="M287 0h-89v367q0 19 -9.5 30.5t-24.5 11.5q-18 0 -29.5 -17.5t-11.5 -36.5v-355h-89v480h79l5 -63q24 70 84 70q40 0 62.5 -28.5t22.5 -76.5v-382z" />
    <glyph glyph-name="o" unicode="o" 
d="M277 129q0 -63 -34 -100t-89 -37q-56 0 -90.5 37t-34.5 100v220q0 62 35 100t90 38t89 -38t34 -100v-220zM191 112v254q0 19 -10.5 31t-26.5 12q-18 0 -27.5 -12t-9.5 -31v-254q0 -42 37 -42q17 0 27 11.5t10 30.5z" />
    <glyph glyph-name="p" unicode="p" horiz-adv-x="314" 
d="M285 101q0 -46 -24.5 -77t-60.5 -31q-47 0 -77 42v-198h-89v643h71l6 -47q25 55 82 55q43 0 67.5 -31.5t24.5 -81.5v-274zM197 119v244q0 48 -36 48q-16 0 -27 -12.5t-11 -33.5v-248q0 -20 10.5 -32.5t27.5 -12.5q36 0 36 47z" />
    <glyph glyph-name="q" unicode="q" horiz-adv-x="314" 
d="M280 -164h-89v208q-24 -52 -80 -52q-35 0 -58.5 30.5t-23.5 76.5v274q0 51 25 82.5t68 31.5q58 0 81 -56l9 47h68v-642zM191 116v247q0 21 -10.5 33.5t-26.5 12.5q-17 0 -27.5 -12.5t-10.5 -34.5v-244q0 -48 38 -48q17 0 27 12.5t10 33.5z" />
    <glyph glyph-name="r" unicode="r" horiz-adv-x="229" 
d="M217 386q-94 11 -94 -56v-330h-89v480h77l6 -68q24 84 100 73v-99z" />
    <glyph glyph-name="s" unicode="s" horiz-adv-x="282" 
d="M264 121q0 -56 -31.5 -92.5t-88.5 -36.5q-59 0 -91 34.5t-32 95.5v29h77v-36q0 -48 42 -48t42 42q0 28 -13 46.5t-51 53.5q-6 6 -10 9q-83 62 -83 143q0 58 33 92t85 34q56 0 86.5 -34.5t30.5 -91.5v-30h-74v37q0 41 -41 41q-37 0 -37 -38q0 -25 14 -45t49 -50
q45 -35 69 -69.5t24 -85.5z" />
    <glyph glyph-name="t" unicode="t" horiz-adv-x="204" 
d="M195 399h-52v-260q0 -88 19 -139h-89q-20 51 -20 139v260h-44v78h49v79l85 25v-104h52v-78z" />
    <glyph glyph-name="u" unicode="u" horiz-adv-x="321" 
d="M286 0h-77l-5 58q-24 -66 -85 -66q-41 0 -63.5 28.5t-22.5 76.5v383h89v-369q0 -19 10 -30.5t25 -11.5q17 0 28.5 17.5t11.5 36.5v357h89v-480z" />
    <glyph glyph-name="v" unicode="v" horiz-adv-x="280" 
d="M272 480l-93 -480h-79l-93 480h87l36 -238l12 -95l12 95l34 238h84z" />
    <glyph glyph-name="w" unicode="w" horiz-adv-x="418" 
d="M412 480l-85 -480h-75l-31 190l-12 99l-13 -99l-31 -190h-75l-83 480h87l28 -233l11 -104l11 104l32 233h73l29 -233l12 -104l11 104l30 233h81z" />
    <glyph glyph-name="x" unicode="x" horiz-adv-x="286" 
d="M279 0h-91l-46 159l-47 -159h-89l87 237l-87 243h90l47 -161l47 161h89l-88 -234z" />
    <glyph glyph-name="y" unicode="y" horiz-adv-x="279" 
d="M272 480l-97 -509q-15 -75 -39.5 -106t-85.5 -31h-22v74h18q22 0 30.5 9.5t14.5 34.5l8 55l-92 473h87l36 -236l12 -96l11 96l35 236h84z" />
    <glyph glyph-name="z" unicode="z" horiz-adv-x="258" 
d="M242 439l-130 -355h125v-84h-223v41l132 358h-123v81h219v-41z" />
    <glyph glyph-name="braceleft" unicode="{" horiz-adv-x="271" 
d="M235 -133h-33q-65 0 -100 38.5t-35 97.5q0 43 18.5 91t36.5 85.5t18 55.5q0 23 -13.5 34t-44.5 11h-32v49h32q32 0 45 10.5t13 33.5q0 18 -36.5 97t-36.5 135q0 59 35 97.5t100 38.5h33v-57h-26q-30 0 -45 -21.5t-15 -57.5q0 -40 28.5 -110.5t28.5 -95.5
q0 -37 -18.5 -59.5t-61.5 -32.5q43 -9 61.5 -31.5t18.5 -60.5q0 -24 -28.5 -98t-28.5 -114q0 -35 15 -56.5t45 -21.5h26v-58z" />
    <glyph glyph-name="bar" unicode="|" horiz-adv-x="131" 
d="M94 -64h-57v793h57v-793z" />
    <glyph glyph-name="braceright" unicode="}" horiz-adv-x="271" 
d="M221 280h-32q-31 0 -44 -11t-13 -34q0 -18 18 -55.5t36 -85.5t18 -91q0 -59 -34.5 -97.5t-100.5 -38.5h-32v58h26q59 0 59 78q0 40 -28 114t-28 98q0 38 18.5 60t60.5 32q-79 19 -79 92q0 25 28 95.5t28 110.5q0 79 -59 79h-26v57h32q66 0 100.5 -38.5t34.5 -97.5
q0 -56 -36 -135t-36 -97q0 -23 13 -33.5t44 -10.5h32v-49z" />
    <glyph glyph-name="asciitilde" unicode="~" horiz-adv-x="242" 
d="M233 350q0 -35 -16 -54.5t-47 -19.5q-22 0 -54.5 22.5t-41.5 22.5q-17 0 -17 -20v-23h-36q-11 15 -11 37q0 73 61 73q22 0 55.5 -22t41.5 -22q18 0 18 20v24h36q11 -19 11 -38z" />
    <glyph glyph-name="nbspace" unicode="&#xa0;" horiz-adv-x="66" 
 />
    <glyph glyph-name="exclamdown" unicode="&#xa1;" horiz-adv-x="166" 
d="M123 371h-81v109h81v-109zM129 -186h-93v289l32 201h29l32 -201v-289z" />
    <glyph glyph-name="cent" unicode="&#xa2;" 
d="M127 577v89h67v-89q38 -11 60 -45.5t22 -85.5v-48h-76v61q0 20 -10 32t-28 12q-17 0 -27 -12t-10 -32v-251q0 -43 37 -43q38 0 38 43v60h76v-47q0 -51 -21.5 -85t-60.5 -45v-91h-67v90q-41 11 -66 45.5t-25 85.5v225q0 51 25 85.5t66 45.5z" />
    <glyph glyph-name="sterling" unicode="&#xa3;" horiz-adv-x="414" 
d="M392 122q0 -134 -111 -134q-71 0 -116 47q-31 -47 -85 -47q-37 0 -60.5 22t-23.5 57q0 37 25.5 61t69.5 24q29 0 57 -15q19 35 19 98q0 32 -12 59h-105v75h76q-30 77 -30 142q0 72 38 119.5t108 47.5q65 0 99 -43t34 -103v-64h-87v57q0 56 -46 56q-45 0 -45 -58
q0 -69 33 -154h109v-75h-89q4 -26 4 -40q0 -81 -48 -152q35 -26 62 -26q43 0 43 49v74h81v-77zM121 76q-18 18 -38 18q-25 0 -25 -22t26 -22t37 26z" />
    <glyph glyph-name="currency" unicode="&#xa4;" horiz-adv-x="358" 
d="M130 372h153v-77h-153v-155q0 -25 14.5 -40t41.5 -15t41 15t14 41v75h92v-74q0 -70 -39 -112.5t-110 -42.5q-72 0 -113 44.5t-41 115.5v372q0 70 41.5 115t112.5 45t110 -42.5t39 -112.5v-74h-92v75q0 26 -14 41t-41 15t-41.5 -15t-14.5 -40v-154z" />
    <glyph glyph-name="yen" unicode="&#xa5;" horiz-adv-x="371" 
d="M232 276v-60h101v-76h-101v-140h-99v140h-100v76h100v60h-100v76h78l-92 314h103l66 -265l64 265h100l-97 -314h78v-76h-101z" />
    <glyph glyph-name="section" unicode="&#xa7;" horiz-adv-x="369" 
d="M347 253q0 -94 -66 -142q32 -35 46 -64t14 -69q0 -62 -39.5 -104.5t-113.5 -42.5q-76 0 -120.5 39.5t-44.5 107.5v32h94v-39q0 -25 17.5 -40.5t47.5 -15.5q63 0 63 57q0 26 -22 52t-54 49t-64 48.5t-54 61.5t-22 78q0 85 67 138q-60 65 -60 130t38.5 107t112.5 42
q73 0 112 -42t39 -105v-30h-94v37q0 53 -54 53t-54 -52q0 -25 21.5 -50.5t52.5 -48.5t62.5 -49t53 -62t21.5 -76zM259 228q0 32 -24 62t-82 66q-36 -25 -36 -72q0 -32 22.5 -59.5t84.5 -65.5q35 23 35 69z" />
    <glyph glyph-name="dieresis" unicode="&#xa8;" horiz-adv-x="206" 
d="M194 552h-70v93h70v-93zM81 552h-69v93h69v-93z" />
    <glyph glyph-name="copyright" unicode="&#xa9;" horiz-adv-x="611" 
d="M592 319q0 -120 -82.5 -204t-204.5 -84t-204 84t-82 204t82 204.5t204 84.5t204.5 -84.5t82.5 -204.5zM547 319q0 104 -68 175.5t-174 71.5q-105 0 -173 -71.5t-68 -175.5t68 -175.5t173 -71.5q106 0 174 71.5t68 175.5zM402 263q0 -36 -25.5 -59t-67.5 -23t-69.5 23.5
t-27.5 59.5v109q0 37 27 60.5t70 23.5q42 0 67.5 -22.5t25.5 -59.5v-18h-44v17q0 20 -12.5 32.5t-35.5 12.5t-35.5 -13t-12.5 -33v-108q0 -20 12.5 -32.5t35.5 -12.5t35.5 12t12.5 31v18h44v-18z" />
    <glyph glyph-name="ordfeminine" unicode="&#xaa;" horiz-adv-x="270" 
d="M256 310h-24q-43 0 -55 41q-24 -41 -75 -41q-36 0 -57.5 24t-21.5 65v14q0 48 35 74.5t102 46.5v54q0 30 -28 30t-28 -32v-29h-68v26q0 42 25.5 68.5t73.5 26.5q49 0 73.5 -27.5t24.5 -74.5v-195q0 -18 23 -18v-53zM160 403v81q-65 -16 -65 -62v-23q0 -32 29 -32
q15 0 25.5 10t10.5 26z" />
    <glyph glyph-name="guillemotleft" unicode="&#xab;" horiz-adv-x="368" 
d="M341 0h-41q-11 58 -41.5 100.5t-76.5 61.5v63q46 19 76.5 61.5t41.5 100.5h41q0 -135 -73 -194q73 -59 73 -193zM180 0h-42q-22 122 -118 162v63q96 40 118 162h42q0 -135 -73 -194q73 -59 73 -193z" />
    <glyph glyph-name="logicalnot" unicode="&#xac;" horiz-adv-x="355" 
d="M309 256l-53 -53l-79 79l-79 -79l-52 52l78 78l-78 80l53 52l79 -79l79 79l52 -52l-80 -78z" />
    <glyph glyph-name="registered" unicode="&#xae;" horiz-adv-x="611" 
d="M592 319q0 -120 -82.5 -204t-204.5 -84t-204 84t-82 204t82 204.5t204 84.5t204.5 -84.5t82.5 -204.5zM547 319q0 104 -68 175.5t-174 71.5q-105 0 -173 -71.5t-68 -175.5t68 -175.5t173 -71.5q106 0 174 71.5t68 175.5zM417 187h-13q-29 0 -40 9t-11 33v33q0 38 -34 38
h-49v-110h-50v262h104q77 0 77 -71v-8q0 -48 -43 -56q22 -2 33.5 -17.5t11.5 -36.5v-30q0 -11 14 -11v-35zM351 370v12q0 31 -31 31h-50v-79h46q35 0 35 36z" />
    <glyph glyph-name="macron" unicode="&#xaf;" horiz-adv-x="213" 
d="M203 566h-193v60h193v-60z" />
    <glyph glyph-name="degree" unicode="&#xb0;" horiz-adv-x="238" 
d="M225 575q0 -42 -30 -73t-76 -31t-76 31t-30 73t30 72.5t76 30.5t76 -30.5t30 -72.5zM171 575q0 25 -14 41t-38 16t-38 -16t-14 -41q0 -26 14 -42t38 -16t38 16t14 42z" />
    <glyph glyph-name="plusminus" unicode="&#xb1;" horiz-adv-x="520" 
d="M496 0h-472v492h472v-492zM445 49v394h-370v-394h370z" />
    <glyph glyph-name="acute" unicode="&#xb4;" horiz-adv-x="156" 
d="M154 667l-70 -132h-51l35 132h86z" />
    <glyph glyph-name="paragraph" unicode="&#xb6;" horiz-adv-x="481" 
d="M440 -162h-62v743h-61v-743h-62v353h-35q-82 0 -136 63.5t-54 165.5v16q0 103 54 166.5t136 63.5h220v-828zM255 270v311h-17q-28 0 -44.5 -26t-16.5 -67v-137q0 -39 16 -60t45 -21h17z" />
    <glyph glyph-name="periodcentered" unicode="&#xb7;" horiz-adv-x="138" 
d="M111 273h-84v118h84v-118z" />
    <glyph glyph-name="cedilla" unicode="&#xb8;" horiz-adv-x="155" 
d="M161 -131q0 -31 -22 -52.5t-55 -21.5q-18 0 -31 8v27h16q32 0 32 30v23q0 31 -32 31q-17 0 -34 -18l-26 20l70 102l26 -19l-43 -63q8 7 30 7q32 0 50.5 -20.5t18.5 -53.5z" />
    <glyph glyph-name="ordmasculine" unicode="&#xba;" horiz-adv-x="252" 
d="M231 417q0 -49 -29.5 -78t-75.5 -29t-75.5 29t-29.5 78v154q0 49 29.5 78t75.5 29t75.5 -29t29.5 -78v-154zM158 403v182q0 14 -9 24t-23 10t-23 -10t-9 -24v-182q0 -15 9 -24.5t23 -9.5t23 9.5t9 24.5z" />
    <glyph glyph-name="guillemotright" unicode="&#xbb;" horiz-adv-x="368" 
d="M346 162q-46 -19 -76.5 -61.5t-41.5 -100.5h-42q0 134 73 193q-73 59 -73 194h42q11 -58 41.5 -100.5t76.5 -61.5v-63zM184 162q-46 -19 -76.5 -61.5t-41.5 -100.5h-41q0 134 73 193q-73 59 -73 194h41q11 -58 41.5 -100.5t76.5 -61.5v-63z" />
    <glyph glyph-name="questiondown" unicode="&#xbf;" horiz-adv-x="287" 
d="M117 480h80v-109h-80v109zM-4 -44q0 106 82 209q44 54 44 129h68q0 -54 -14 -95.5t-54 -116.5q-32 -61 -32 -118q0 -38 11.5 -54t36.5 -16q48 0 48 61v71h87v-79q0 -65 -34.5 -105t-100.5 -40q-73 0 -107.5 42.5t-34.5 111.5z" />
    <glyph glyph-name="Agrave" unicode="&#xc0;" horiz-adv-x="347" 
d="M343 0h-108l-17 130h-97l-20 -130h-97l111 666h117zM206 219l-33 272l-39 -272h72zM196 701h-51l-70 132h86z" />
    <glyph glyph-name="Aacute" unicode="&#xc1;" horiz-adv-x="347" 
d="M343 0h-108l-17 130h-97l-20 -130h-97l111 666h117zM206 219l-33 272l-39 -272h72zM267 833l-70 -132h-51l35 132h86z" />
    <glyph glyph-name="Acircumflex" unicode="&#xc2;" horiz-adv-x="347" 
d="M343 0h-108l-17 130h-97l-20 -130h-97l111 666h117zM206 219l-33 272l-39 -272h72zM287 710q-18 -7 -39 -7q-59 0 -74 71q-16 -71 -75 -71q-17 0 -34 7v25q24 0 45.5 24t31.5 69h66q11 -45 32.5 -69t46.5 -24v-25z" />
    <glyph glyph-name="Atilde" unicode="&#xc3;" horiz-adv-x="347" 
d="M343 0h-108l-17 130h-97l-20 -130h-97l111 666h117zM206 219l-33 272l-39 -272h72zM283 785q0 -35 -16 -54.5t-47 -19.5q-22 0 -54.5 22.5t-41.5 22.5q-17 0 -17 -20v-23h-36q-11 15 -11 37q0 73 61 73q22 0 55.5 -22t41.5 -22q18 0 18 20v24h36q11 -19 11 -38z" />
    <glyph glyph-name="Adieresis" unicode="&#xc4;" horiz-adv-x="347" 
d="M343 0h-108l-17 130h-97l-20 -130h-97l111 666h117zM206 219l-33 272l-39 -272h72zM263 718h-70v93h70v-93zM150 718h-69v93h69v-93z" />
    <glyph glyph-name="Aring" unicode="&#xc5;" horiz-adv-x="347" 
d="M130 666q-25 20 -25 52q0 30 19.5 51.5t48.5 21.5t48.5 -21.5t19.5 -51.5q0 -33 -24 -52h15l111 -666h-108l-17 130h-97l-20 -130h-97l111 666h15zM207 718q0 42 -34 42q-33 0 -33 -42q0 -41 33 -41q16 0 25 11t9 30zM206 219l-33 272l-39 -272h72z" />
    <glyph glyph-name="AE" unicode="&#xc6;" horiz-adv-x="516" 
d="M495 0h-266v130h-91l-33 -130h-102l176 666h316v-94h-160v-183h111v-88h-111v-204h160v-97zM229 219v291l-67 -291h67z" />
    <glyph glyph-name="Ccedilla" unicode="&#xc7;" horiz-adv-x="365" 
d="M158 -9q-59 10 -93.5 52.5t-34.5 103.5v372q0 69 44.5 114t116.5 45t111.5 -42t39.5 -111v-96h-94v98q0 25 -14 40t-41 15t-41 -15t-14 -39v-390q0 -24 14 -39t41 -15t41 15t14 40v99h94v-97q0 -67 -38.5 -109.5t-107.5 -43.5l-35 -52q8 7 29 7q32 0 50.5 -20.5
t18.5 -53.5q0 -31 -21.5 -52.5t-54.5 -21.5q-20 0 -31 8v27h15q32 0 32 30v23q0 31 -32 31q-17 0 -34 -18l-26 20z" />
    <glyph glyph-name="Egrave" unicode="&#xc8;" horiz-adv-x="323" 
d="M303 0h-266v666h266v-94h-160v-184h111v-88h-111v-203h160v-97zM195 701h-51l-70 132h86z" />
    <glyph glyph-name="Eacute" unicode="&#xc9;" horiz-adv-x="323" 
d="M303 0h-266v666h266v-94h-160v-184h111v-88h-111v-203h160v-97zM254 833l-70 -132h-51l35 132h86z" />
    <glyph glyph-name="Ecircumflex" unicode="&#xca;" horiz-adv-x="323" 
d="M303 0h-266v666h266v-94h-160v-184h111v-88h-111v-203h160v-97zM279 710q-18 -7 -39 -7q-59 0 -74 71q-16 -71 -75 -71q-17 0 -34 7v25q24 0 45.5 24t31.5 69h66q11 -45 32.5 -69t46.5 -24v-25z" />
    <glyph glyph-name="Edieresis" unicode="&#xcb;" horiz-adv-x="323" 
d="M303 0h-266v666h266v-94h-160v-184h111v-88h-111v-203h160v-97zM260 718h-70v93h70v-93zM147 718h-69v93h69v-93z" />
    <glyph glyph-name="Igrave" unicode="&#xcc;" horiz-adv-x="181" 
d="M143 0h-106v666h106v-666zM115 701h-51l-70 132h86z" />
    <glyph glyph-name="Iacute" unicode="&#xcd;" horiz-adv-x="181" 
d="M143 0h-106v666h106v-666zM182 833l-70 -132h-51l35 132h86z" />
    <glyph glyph-name="Icircumflex" unicode="&#xce;" horiz-adv-x="181" 
d="M143 0h-106v666h106v-666zM204 710q-18 -7 -39 -7q-59 0 -74 71q-16 -71 -75 -71q-17 0 -34 7v25q24 0 45.5 24t31.5 69h66q11 -45 32.5 -69t46.5 -24v-25z" />
    <glyph glyph-name="Idieresis" unicode="&#xcf;" horiz-adv-x="181" 
d="M143 0h-106v666h106v-666zM181 718h-70v93h70v-93zM68 718h-69v93h69v-93z" />
    <glyph glyph-name="Eth" unicode="&#xd0;" horiz-adv-x="402" 
d="M57 295h-60v75h60v296h162q72 0 112 -42t40 -117v-352q0 -75 -40 -115t-112 -40h-162v295zM163 370h51v-75h-51v-201h49q53 0 53 63v351q0 63 -53 63h-49v-201z" />
    <glyph glyph-name="Ntilde" unicode="&#xd1;" horiz-adv-x="400" 
d="M363 0h-82l-112 302l-37 102v-404h-96v666h94l104 -305l34 -103v408h95v-666zM310 785q0 -35 -16 -54.5t-47 -19.5q-22 0 -54.5 22.5t-41.5 22.5q-17 0 -17 -20v-23h-36q-11 15 -11 37q0 73 61 73q22 0 55.5 -22t41.5 -22q18 0 18 20v24h36q11 -19 11 -38z" />
    <glyph glyph-name="Ograve" unicode="&#xd2;" horiz-adv-x="380" 
d="M349 146q0 -70 -43.5 -114t-115.5 -44t-115.5 44t-43.5 114v374q0 70 44 114t115 44t115 -44t44 -114v-374zM242 138v390q0 24 -14 39t-38 15t-38 -15t-14 -39v-390q0 -24 14 -39t38 -15t38 15t14 39zM215 701h-51l-70 132h86z" />
    <glyph glyph-name="Oacute" unicode="&#xd3;" horiz-adv-x="380" 
d="M349 146q0 -70 -43.5 -114t-115.5 -44t-115.5 44t-43.5 114v374q0 70 44 114t115 44t115 -44t44 -114v-374zM242 138v390q0 24 -14 39t-38 15t-38 -15t-14 -39v-390q0 -24 14 -39t38 -15t38 15t14 39zM283 833l-70 -132h-51l35 132h86z" />
    <glyph glyph-name="Ocircumflex" unicode="&#xd4;" horiz-adv-x="380" 
d="M349 146q0 -70 -43.5 -114t-115.5 -44t-115.5 44t-43.5 114v374q0 70 44 114t115 44t115 -44t44 -114v-374zM242 138v390q0 24 -14 39t-38 15t-38 -15t-14 -39v-390q0 -24 14 -39t38 -15t38 15t14 39zM303 710q-18 -7 -39 -7q-59 0 -74 71q-16 -71 -75 -71q-17 0 -34 7
v25q24 0 45.5 24t31.5 69h66q11 -45 32.5 -69t46.5 -24v-25z" />
    <glyph glyph-name="Otilde" unicode="&#xd5;" horiz-adv-x="380" 
d="M349 146q0 -70 -43.5 -114t-115.5 -44t-115.5 44t-43.5 114v374q0 70 44 114t115 44t115 -44t44 -114v-374zM242 138v390q0 24 -14 39t-38 15t-38 -15t-14 -39v-390q0 -24 14 -39t38 -15t38 15t14 39zM298 785q0 -35 -16 -54.5t-47 -19.5q-22 0 -54.5 22.5t-41.5 22.5
q-17 0 -17 -20v-23h-36q-11 15 -11 37q0 73 61 73q22 0 55.5 -22t41.5 -22q18 0 18 20v24h36q11 -19 11 -38z" />
    <glyph glyph-name="Odieresis" unicode="&#xd6;" horiz-adv-x="380" 
d="M349 146q0 -70 -43.5 -114t-115.5 -44t-115.5 44t-43.5 114v374q0 70 44 114t115 44t115 -44t44 -114v-374zM242 138v390q0 24 -14 39t-38 15t-38 -15t-14 -39v-390q0 -24 14 -39t38 -15t38 15t14 39zM282 718h-70v93h70v-93zM169 718h-69v93h69v-93z" />
    <glyph glyph-name="multiply" unicode="&#xd7;" horiz-adv-x="355" 
d="M309 256l-53 -53l-79 79l-79 -79l-52 52l78 78l-78 80l53 52l79 -79l79 79l52 -52l-80 -78z" />
    <glyph glyph-name="Oslash" unicode="&#xd8;" horiz-adv-x="380" 
d="M363 671q-31 -73 -32 -74q18 -33 18 -77v-374q0 -70 -43.5 -114t-115.5 -44q-62 0 -105 35l-23 -53l-45 25l31 73q-17 36 -17 78v374q0 70 44 114t115 44q62 0 104 -34l23 52zM242 520v8q0 24 -14 39t-38 15t-38 -15t-14 -39v-250q3 7 8 18.5t18.5 43.5t25.5 60t24.5 57
t19.5 46zM242 138v251l-104 -242v-9q0 -24 14 -39t38 -15t38 15t14 39z" />
    <glyph glyph-name="Ugrave" unicode="&#xd9;" horiz-adv-x="382" 
d="M347 138q0 -67 -43.5 -108.5t-111.5 -41.5t-112.5 41.5t-44.5 108.5v528h107v-530q0 -53 50 -53q52 0 52 53v530h103v-528zM220 701h-51l-70 132h86z" />
    <glyph glyph-name="Uacute" unicode="&#xda;" horiz-adv-x="382" 
d="M347 138q0 -67 -43.5 -108.5t-111.5 -41.5t-112.5 41.5t-44.5 108.5v528h107v-530q0 -53 50 -53q52 0 52 53v530h103v-528zM287 833l-70 -132h-51l35 132h86z" />
    <glyph glyph-name="Ucircumflex" unicode="&#xdb;" horiz-adv-x="382" 
d="M347 138q0 -67 -43.5 -108.5t-111.5 -41.5t-112.5 41.5t-44.5 108.5v528h107v-530q0 -53 50 -53q52 0 52 53v530h103v-528zM307 710q-18 -7 -39 -7q-59 0 -74 71q-16 -71 -75 -71q-17 0 -34 7v25q24 0 45.5 24t31.5 69h66q11 -45 32.5 -69t46.5 -24v-25z" />
    <glyph glyph-name="Udieresis" unicode="&#xdc;" horiz-adv-x="382" 
d="M347 138q0 -67 -43.5 -108.5t-111.5 -41.5t-112.5 41.5t-44.5 108.5v528h107v-530q0 -53 50 -53q52 0 52 53v530h103v-528zM285 718h-70v93h70v-93zM172 718h-69v93h69v-93z" />
    <glyph glyph-name="Yacute" unicode="&#xdd;" horiz-adv-x="349" 
d="M352 666l-127 -398v-268h-106v268l-120 398h108l71 -279l69 279h105zM272 833l-70 -132h-51l35 132h86z" />
    <glyph glyph-name="Thorn" unicode="&#xde;" horiz-adv-x="357" 
d="M337 281q0 -67 -35 -100.5t-94 -33.5h-65v-147h-106v666h107v-116h64q59 0 94 -33.5t35 -100.5v-135zM235 277v138q0 45 -36 45h-56v-227h56q36 0 36 44z" />
    <glyph glyph-name="germandbls" unicode="&#xdf;" horiz-adv-x="323" 
d="M293 106q0 -54 -28 -84t-74 -30q-21 0 -33 10v47q46 0 46 47v177q0 47 -44 47v70q47 0 47 48v97q0 53 -40 53q-42 0 -42 -54v-534h-90v517q0 69 33 109t94 40q63 0 95.5 -38.5t32.5 -106.5v-72q0 -71 -48 -96q51 -25 51 -97v-150z" />
    <glyph glyph-name="agrave" unicode="&#xe0;" horiz-adv-x="301" 
d="M284 -8h-21q-51 0 -65 52q-28 -52 -86 -52q-43 0 -68.5 31t-25.5 86v23q0 61 41 98t119 66v74q0 38 -33 38q-32 0 -32 -40v-42h-81v38q0 55 30 89t87 34t86 -35.5t29 -94.5v-274q0 -23 20 -24v-67zM178 112v116q-75 -26 -75 -83v-38q0 -42 33 -42q18 0 30 13.5t12 33.5z
M175 535h-51l-70 132h86z" />
    <glyph glyph-name="aacute" unicode="&#xe1;" horiz-adv-x="301" 
d="M284 -8h-21q-51 0 -65 52q-28 -52 -86 -52q-43 0 -68.5 31t-25.5 86v23q0 61 41 98t119 66v74q0 38 -33 38q-32 0 -32 -40v-42h-81v38q0 55 30 89t87 34t86 -35.5t29 -94.5v-274q0 -23 20 -24v-67zM178 112v116q-75 -26 -75 -83v-38q0 -42 33 -42q18 0 30 13.5t12 33.5z
M243 667l-70 -132h-51l35 132h86z" />
    <glyph glyph-name="acircumflex" unicode="&#xe2;" horiz-adv-x="301" 
d="M284 -8h-21q-51 0 -65 52q-28 -52 -86 -52q-43 0 -68.5 31t-25.5 86v23q0 61 41 98t119 66v74q0 38 -33 38q-32 0 -32 -40v-42h-81v38q0 55 30 89t87 34t86 -35.5t29 -94.5v-274q0 -23 20 -24v-67zM178 112v116q-75 -26 -75 -83v-38q0 -42 33 -42q18 0 30 13.5t12 33.5z
M263 544q-18 -7 -39 -7q-59 0 -74 71q-16 -71 -75 -71q-17 0 -34 7v25q24 0 45.5 24t31.5 69h66q11 -45 32.5 -69t46.5 -24v-25z" />
    <glyph glyph-name="atilde" unicode="&#xe3;" horiz-adv-x="301" 
d="M284 -8h-21q-51 0 -65 52q-28 -52 -86 -52q-43 0 -68.5 31t-25.5 86v23q0 61 41 98t119 66v74q0 38 -33 38q-32 0 -32 -40v-42h-81v38q0 55 30 89t87 34t86 -35.5t29 -94.5v-274q0 -23 20 -24v-67zM178 112v116q-75 -26 -75 -83v-38q0 -42 33 -42q18 0 30 13.5t12 33.5z
M258 619q0 -35 -16 -54.5t-47 -19.5q-22 0 -54.5 22.5t-41.5 22.5q-17 0 -17 -20v-23h-36q-11 15 -11 37q0 73 61 73q22 0 55.5 -22t41.5 -22q18 0 18 20v24h36q11 -19 11 -38z" />
    <glyph glyph-name="adieresis" unicode="&#xe4;" horiz-adv-x="301" 
d="M284 -8h-21q-51 0 -65 52q-28 -52 -86 -52q-43 0 -68.5 31t-25.5 86v23q0 61 41 98t119 66v74q0 38 -33 38q-32 0 -32 -40v-42h-81v38q0 55 30 89t87 34t86 -35.5t29 -94.5v-274q0 -23 20 -24v-67zM178 112v116q-75 -26 -75 -83v-38q0 -42 33 -42q18 0 30 13.5t12 33.5z
M239 552h-70v93h70v-93zM126 552h-69v93h69v-93z" />
    <glyph glyph-name="aring" unicode="&#xe5;" horiz-adv-x="301" 
d="M284 -8h-21q-51 0 -65 52q-28 -52 -86 -52q-43 0 -68.5 31t-25.5 86v23q0 61 41 98t119 66v74q0 38 -33 38q-32 0 -32 -40v-42h-81v38q0 55 30 89t87 34t86 -35.5t29 -94.5v-274q0 -23 20 -24v-67zM178 112v116q-75 -26 -75 -83v-38q0 -42 33 -42q18 0 30 13.5t12 33.5z
M216 609q0 -29 -19.5 -50.5t-48.5 -21.5t-48.5 21.5t-19.5 50.5q0 30 19.5 51.5t48.5 21.5t48.5 -21.5t19.5 -51.5zM182 609q0 41 -34 41q-33 0 -33 -41t33 -41q16 0 25 11t9 30z" />
    <glyph glyph-name="ae" unicode="&#xe6;" horiz-adv-x="451" 
d="M425 127q0 -60 -31 -97.5t-80 -37.5q-65 0 -94 48q-33 -48 -100 -48q-48 0 -74.5 31t-26.5 86v23q0 61 41 98t119 66v70q0 41 -34 41t-34 -40v-41h-78v38q0 54 29 88.5t79 34.5q54 0 83 -47q31 47 90 47q50 0 80.5 -37.5t30.5 -98.5v-123h-156v-112q0 -45 39 -45
q38 0 38 45v57h79v-46zM344 279v84q0 45 -37 45q-18 0 -28 -12.5t-10 -32.5v-84h75zM179 114v114q-75 -25 -75 -83v-37q0 -41 33 -41q18 0 30 13.5t12 33.5z" />
    <glyph glyph-name="ccedilla" unicode="&#xe7;" horiz-adv-x="291" 
d="M123 -5q-43 9 -68.5 44.5t-25.5 89.5v220q0 62 34 100t89 38t86 -37t31 -100v-46h-75v60q0 21 -10.5 33t-28.5 12t-28.5 -12.5t-10.5 -34.5v-246q0 -46 39 -46q18 0 28.5 12t10.5 33v59h75v-45q0 -61 -28.5 -97t-80.5 -39l-39 -57q8 7 30 7q32 0 50.5 -20.5t18.5 -53.5
q0 -31 -22 -52.5t-55 -21.5q-18 0 -31 8v27h16q32 0 32 30v23q0 31 -32 31q-18 0 -34 -18l-26 20z" />
    <glyph glyph-name="egrave" unicode="&#xe8;" horiz-adv-x="298" 
d="M272 127q0 -61 -32.5 -98t-86.5 -37t-89 37.5t-35 98.5v223q0 60 35 98t89 38t86.5 -37.5t32.5 -98.5v-123h-156v-114q0 -44 38 -44t38 44v59h80v-46zM191 279v85q0 45 -37 45q-18 0 -28 -12t-10 -33v-85h75zM179 535h-51l-70 132h86z" />
    <glyph glyph-name="eacute" unicode="&#xe9;" horiz-adv-x="298" 
d="M272 127q0 -61 -32.5 -98t-86.5 -37t-89 37.5t-35 98.5v223q0 60 35 98t89 38t86.5 -37.5t32.5 -98.5v-123h-156v-114q0 -44 38 -44t38 44v59h80v-46zM191 279v85q0 45 -37 45q-18 0 -28 -12t-10 -33v-85h75zM248 667l-70 -132h-51l35 132h86z" />
    <glyph glyph-name="ecircumflex" unicode="&#xea;" horiz-adv-x="298" 
d="M272 127q0 -61 -32.5 -98t-86.5 -37t-89 37.5t-35 98.5v223q0 60 35 98t89 38t86.5 -37.5t32.5 -98.5v-123h-156v-114q0 -44 38 -44t38 44v59h80v-46zM191 279v85q0 45 -37 45q-18 0 -28 -12t-10 -33v-85h75zM263 544q-18 -7 -39 -7q-59 0 -74 71q-16 -71 -75 -71
q-17 0 -34 7v25q24 0 45.5 24t31.5 69h66q11 -45 32.5 -69t46.5 -24v-25z" />
    <glyph glyph-name="edieresis" unicode="&#xeb;" horiz-adv-x="298" 
d="M272 127q0 -61 -32.5 -98t-86.5 -37t-89 37.5t-35 98.5v223q0 60 35 98t89 38t86.5 -37.5t32.5 -98.5v-123h-156v-114q0 -44 38 -44t38 44v59h80v-46zM191 279v85q0 45 -37 45q-18 0 -28 -12t-10 -33v-85h75zM242 552h-70v93h70v-93zM129 552h-69v93h69v-93z" />
    <glyph glyph-name="igrave" unicode="&#xec;" horiz-adv-x="158" 
d="M123 0h-89v480h89v-480zM102 535h-51l-70 132h86z" />
    <glyph glyph-name="iacute" unicode="&#xed;" horiz-adv-x="158" 
d="M123 0h-89v480h89v-480zM174 667l-70 -132h-51l35 132h86z" />
    <glyph glyph-name="icircumflex" unicode="&#xee;" horiz-adv-x="158" 
d="M123 0h-89v480h89v-480zM192 544q-18 -7 -39 -7q-59 0 -74 71q-16 -71 -75 -71q-17 0 -34 7v25q24 0 45.5 24t31.5 69h66q11 -45 32.5 -69t46.5 -24v-25z" />
    <glyph glyph-name="idieresis" unicode="&#xef;" horiz-adv-x="158" 
d="M123 0h-89v480h89v-480zM169 552h-70v93h70v-93zM56 552h-69v93h69v-93z" />
    <glyph glyph-name="eth" unicode="&#xf0;" horiz-adv-x="310" 
d="M219 624l44 21l18 -44l-38 -18q37 -71 37 -175v-279q0 -62 -36 -99.5t-90 -37.5t-89 37t-35 100v242q0 45 25 77t62 32q44 0 74 -42q-2 64 -22 109l-53 -26l-17 44l48 24q-25 37 -68 74v3h103q19 -18 37 -42zM117 112q0 -18 10.5 -29.5t26.5 -11.5t26.5 11.5t10.5 29.5
v249q0 21 -10 33.5t-27 12.5q-37 0 -37 -47v-248z" />
    <glyph glyph-name="ntilde" unicode="&#xf1;" horiz-adv-x="320" 
d="M287 0h-89v367q0 19 -9.5 30.5t-24.5 11.5q-18 0 -29.5 -17.5t-11.5 -36.5v-355h-89v480h79l5 -63q24 70 84 70q40 0 62.5 -28.5t22.5 -76.5v-382zM266 619q0 -35 -16 -54.5t-47 -19.5q-22 0 -54.5 22.5t-41.5 22.5q-17 0 -17 -20v-23h-36q-11 15 -11 37q0 73 61 73
q22 0 55.5 -22t41.5 -22q18 0 18 20v24h36q11 -19 11 -38z" />
    <glyph glyph-name="ograve" unicode="&#xf2;" 
d="M277 129q0 -63 -34 -100t-89 -37q-56 0 -90.5 37t-34.5 100v220q0 62 35 100t90 38t89 -38t34 -100v-220zM191 112v254q0 19 -10.5 31t-26.5 12q-18 0 -27.5 -12t-9.5 -31v-254q0 -42 37 -42q17 0 27 11.5t10 30.5zM179 535h-51l-70 132h86z" />
    <glyph glyph-name="oacute" unicode="&#xf3;" 
d="M277 129q0 -63 -34 -100t-89 -37q-56 0 -90.5 37t-34.5 100v220q0 62 35 100t90 38t89 -38t34 -100v-220zM191 112v254q0 19 -10.5 31t-26.5 12q-18 0 -27.5 -12t-9.5 -31v-254q0 -42 37 -42q17 0 27 11.5t10 30.5zM250 667l-70 -132h-51l35 132h86z" />
    <glyph glyph-name="ocircumflex" unicode="&#xf4;" 
d="M277 129q0 -63 -34 -100t-89 -37q-56 0 -90.5 37t-34.5 100v220q0 62 35 100t90 38t89 -38t34 -100v-220zM191 112v254q0 19 -10.5 31t-26.5 12q-18 0 -27.5 -12t-9.5 -31v-254q0 -42 37 -42q17 0 27 11.5t10 30.5zM268 544q-18 -7 -39 -7q-59 0 -74 71q-16 -71 -75 -71
q-17 0 -34 7v25q24 0 45.5 24t31.5 69h66q11 -45 32.5 -69t46.5 -24v-25z" />
    <glyph glyph-name="otilde" unicode="&#xf5;" 
d="M277 129q0 -63 -34 -100t-89 -37q-56 0 -90.5 37t-34.5 100v220q0 62 35 100t90 38t89 -38t34 -100v-220zM191 112v254q0 19 -10.5 31t-26.5 12q-18 0 -27.5 -12t-9.5 -31v-254q0 -42 37 -42q17 0 27 11.5t10 30.5zM263 619q0 -35 -16 -54.5t-47 -19.5q-22 0 -54.5 22.5
t-41.5 22.5q-17 0 -17 -20v-23h-36q-11 15 -11 37q0 73 61 73q22 0 55.5 -22t41.5 -22q18 0 18 20v24h36q11 -19 11 -38z" />
    <glyph glyph-name="odieresis" unicode="&#xf6;" 
d="M277 129q0 -63 -34 -100t-89 -37q-56 0 -90.5 37t-34.5 100v220q0 62 35 100t90 38t89 -38t34 -100v-220zM191 112v254q0 19 -10.5 31t-26.5 12q-18 0 -27.5 -12t-9.5 -31v-254q0 -42 37 -42q17 0 27 11.5t10 30.5zM245 552h-70v93h70v-93zM132 552h-69v93h69v-93z" />
    <glyph glyph-name="oslash" unicode="&#xf8;" 
d="M305 476q-17 -31 -38 -69q10 -24 10 -58v-220q0 -63 -34 -100t-89 -37q-56 0 -92 38l-28 -52l-31 25l36 66q-10 26 -10 60v220q0 62 35 100t90 38q56 0 91 -40l29 53zM191 347v19q0 19 -10.5 31t-26.5 12q-18 0 -27.5 -12t-9.5 -31v-154q5 9 12.5 23t23.5 43.5t27 49.5z
M191 112v154l-19 -34q-18 -33 -36 -67l-19 -34v-19q0 -42 37 -42q17 0 27 11.5t10 30.5z" />
    <glyph glyph-name="ugrave" unicode="&#xf9;" horiz-adv-x="321" 
d="M286 0h-77l-5 58q-24 -66 -85 -66q-41 0 -63.5 28.5t-22.5 76.5v383h89v-369q0 -19 10 -30.5t25 -11.5q17 0 28.5 17.5t11.5 36.5v357h89v-480zM185 535h-51l-70 132h86z" />
    <glyph glyph-name="uacute" unicode="&#xfa;" horiz-adv-x="321" 
d="M286 0h-77l-5 58q-24 -66 -85 -66q-41 0 -63.5 28.5t-22.5 76.5v383h89v-369q0 -19 10 -30.5t25 -11.5q17 0 28.5 17.5t11.5 36.5v357h89v-480zM255 667l-70 -132h-51l35 132h86z" />
    <glyph glyph-name="ucircumflex" unicode="&#xfb;" horiz-adv-x="321" 
d="M286 0h-77l-5 58q-24 -66 -85 -66q-41 0 -63.5 28.5t-22.5 76.5v383h89v-369q0 -19 10 -30.5t25 -11.5q17 0 28.5 17.5t11.5 36.5v357h89v-480zM273 544q-18 -7 -39 -7q-59 0 -74 71q-16 -71 -75 -71q-17 0 -34 7v25q24 0 45.5 24t31.5 69h66q11 -45 32.5 -69t46.5 -24
v-25z" />
    <glyph glyph-name="udieresis" unicode="&#xfc;" horiz-adv-x="321" 
d="M286 0h-77l-5 58q-24 -66 -85 -66q-41 0 -63.5 28.5t-22.5 76.5v383h89v-369q0 -19 10 -30.5t25 -11.5q17 0 28.5 17.5t11.5 36.5v357h89v-480zM252 552h-70v93h70v-93zM139 552h-69v93h69v-93z" />
    <glyph glyph-name="yacute" unicode="&#xfd;" horiz-adv-x="279" 
d="M272 480l-97 -509q-15 -75 -39.5 -106t-85.5 -31h-22v74h18q22 0 30.5 9.5t14.5 34.5l8 55l-92 473h87l36 -236l12 -96l11 96l35 236h84zM237 667l-70 -132h-51l35 132h86z" />
    <glyph glyph-name="thorn" unicode="&#xfe;" horiz-adv-x="314" 
d="M285 101q0 -46 -24.5 -77t-60.5 -31q-47 0 -77 42v-198h-89v829h89v-220q31 43 77 43q36 0 60.5 -31.5t24.5 -77.5v-279zM198 119v243q0 22 -10 34.5t-27 12.5t-27.5 -12.5t-10.5 -33.5v-246q0 -20 10.5 -32.5t27.5 -12.5t27 12.5t10 34.5z" />
    <glyph glyph-name="ydieresis" unicode="&#xff;" horiz-adv-x="279" 
d="M272 480l-97 -509q-15 -75 -39.5 -106t-85.5 -31h-22v74h18q22 0 30.5 9.5t14.5 34.5l8 55l-92 473h87l36 -236l12 -96l11 96l35 236h84zM234 552h-70v93h70v-93zM121 552h-69v93h69v-93z" />
    <glyph glyph-name="dotlessi" unicode="&#x131;" horiz-adv-x="158" 
d="M123 0h-89v480h89v-480z" />
    <glyph glyph-name="Lslash" unicode="&#x141;" horiz-adv-x="334" 
d="M183 340v-244h154v-96h-260v244l-62 -52l-22 38l84 78v358h106v-262l59 54l22 -38z" />
    <glyph glyph-name="lslash" unicode="&#x142;" horiz-adv-x="212" 
d="M230 454l-79 -101v-353h-90v243l-50 -62l-29 34l79 101v350h90v-239l50 62z" />
    <glyph glyph-name="OE" unicode="&#x152;" horiz-adv-x="526" 
d="M506 0h-319q-73 0 -114 41t-41 118v344q0 77 41 120t114 43h319v-94h-160v-183h111v-88h-111v-204h160v-97zM240 94v478h-46q-56 0 -56 -67v-345q0 -66 56 -66h46z" />
    <glyph glyph-name="oe" unicode="&#x153;" horiz-adv-x="465" 
d="M439 127q0 -61 -30.5 -98t-80.5 -37q-61 0 -91 47q-30 -47 -92 -47q-51 0 -83.5 37t-32.5 100v220q0 62 33 100t83 38q63 0 92 -48q29 48 91 48q50 0 80.5 -37.5t30.5 -98.5v-123h-156v-112q0 -45 38 -45t38 45v57h80v-46zM358 279v84q0 20 -9.5 32.5t-27.5 12.5
t-28 -12.5t-10 -32.5v-84h75zM190 114v250q0 20 -10 32t-27 12q-16 0 -26.5 -12t-10.5 -32v-250q0 -19 10 -30.5t27 -11.5t27 11.5t10 30.5z" />
    <glyph glyph-name="Scaron" unicode="&#x160;" horiz-adv-x="353" 
d="M332 152q0 -77 -44 -120.5t-112 -43.5q-72 0 -114 41t-42 112v59h97v-57q0 -66 56 -66t56 60q0 41 -20 77t-65 83q-119 119 -119 218q0 71 40.5 117t114.5 46q66 0 106.5 -42t40.5 -111v-60h-96v60q0 29 -13 45.5t-38 16.5q-24 0 -38 -14.5t-14 -39.5q0 -45 19 -75.5
t72 -87.5q113 -116 113 -218zM289 797q-25 0 -46.5 -23.5t-31.5 -68.5h-67q-10 45 -31.5 68.5t-45.5 23.5v26q17 7 38 7q60 0 75 -72q15 72 74 72q18 0 35 -7v-26z" />
    <glyph glyph-name="scaron" unicode="&#x161;" horiz-adv-x="282" 
d="M264 121q0 -56 -31.5 -92.5t-88.5 -36.5q-59 0 -91 34.5t-32 95.5v29h77v-36q0 -48 42 -48t42 42q0 28 -13 46.5t-51 53.5q-6 6 -10 9q-83 62 -83 143q0 58 33 92t85 34q56 0 86.5 -34.5t30.5 -91.5v-30h-74v37q0 41 -41 41q-37 0 -37 -38q0 -25 14 -45t49 -50
q45 -35 69 -69.5t24 -85.5zM253 631q-25 0 -46.5 -23.5t-31.5 -68.5h-67q-10 45 -31.5 68.5t-45.5 23.5v26q17 7 38 7q60 0 75 -72q15 72 74 72q18 0 35 -7v-26z" />
    <glyph glyph-name="Ydieresis" unicode="&#x178;" horiz-adv-x="349" 
d="M352 666l-127 -398v-268h-106v268l-120 398h108l71 -279l69 279h105zM268 718h-70v93h70v-93zM155 718h-69v93h69v-93z" />
    <glyph glyph-name="Zcaron" unicode="&#x17d;" horiz-adv-x="328" 
d="M314 629l-179 -533h171v-96h-295v37l181 534h-170v95h292v-37zM278 797q-25 0 -46.5 -23.5t-31.5 -68.5h-67q-10 45 -31.5 68.5t-45.5 23.5v26q17 7 38 7q60 0 75 -72q15 72 74 72q18 0 35 -7v-26z" />
    <glyph glyph-name="zcaron" unicode="&#x17e;" horiz-adv-x="258" 
d="M242 439l-130 -355h125v-84h-223v41l132 358h-123v81h219v-41zM244 631q-25 0 -46.5 -23.5t-31.5 -68.5h-67q-10 45 -31.5 68.5t-45.5 23.5v26q17 7 38 7q60 0 75 -72q15 72 74 72q18 0 35 -7v-26z" />
    <glyph glyph-name="florin" unicode="&#x192;" horiz-adv-x="264" 
d="M181 387h62v-74h-62v-187q0 -143 -123 -143h-23v73h11q23 0 31.5 10.5t8.5 34.5v212h-61v74h61v136q0 143 123 143h23v-73h-11q-23 0 -31.5 -10.5t-8.5 -34.5v-161z" />
    <glyph glyph-name="circumflex" unicode="&#x2c6;" horiz-adv-x="241" 
d="M232 544q-18 -7 -39 -7q-59 0 -74 71q-16 -71 -75 -71q-17 0 -34 7v25q24 0 45.5 24t31.5 69h66q11 -45 32.5 -69t46.5 -24v-25z" />
    <glyph glyph-name="caron" unicode="&#x2c7;" horiz-adv-x="241" 
d="M232 631q-25 0 -46.5 -23.5t-31.5 -68.5h-67q-10 45 -31.5 68.5t-45.5 23.5v26q17 7 38 7q60 0 75 -72q15 72 74 72q18 0 35 -7v-26z" />
    <glyph glyph-name="breve" unicode="&#x2d8;" horiz-adv-x="209" 
d="M199 615q0 -33 -27 -55t-68 -22q-40 0 -67 22t-27 55q0 21 8 39h42v-13q0 -47 44 -47q45 0 45 47v13h41q9 -16 9 -39z" />
    <glyph glyph-name="dotaccent" unicode="&#x2d9;" horiz-adv-x="203" 
d="M136 552h-69v93h69v-93z" />
    <glyph glyph-name="ring" unicode="&#x2da;" horiz-adv-x="155" 
d="M146 609q0 -29 -19.5 -50.5t-48.5 -21.5t-48.5 21.5t-19.5 50.5q0 30 19.5 51.5t48.5 21.5t48.5 -21.5t19.5 -51.5zM112 609q0 41 -34 41q-33 0 -33 -41t33 -41q16 0 25 11t9 30z" />
    <glyph glyph-name="ogonek" unicode="&#x2db;" horiz-adv-x="155" 
d="M145 -151q-13 -10 -51 -10q-37 0 -59.5 20t-22.5 54q0 76 106 112l9 -11q-59 -40 -59 -89q0 -47 58 -47h19v-29z" />
    <glyph glyph-name="tilde" unicode="&#x2dc;" horiz-adv-x="242" 
d="M233 619q0 -35 -16 -54.5t-47 -19.5q-22 0 -54.5 22.5t-41.5 22.5q-17 0 -17 -20v-23h-36q-11 15 -11 37q0 73 61 73q22 0 55.5 -22t41.5 -22q18 0 18 20v24h36q11 -19 11 -38z" />
    <glyph glyph-name="hungarumlaut" unicode="&#x2dd;" horiz-adv-x="217" 
d="M221 667l-63 -132h-49l43 132h69zM114 667l-50 -132h-48l30 132h68z" />
    <glyph glyph-name="Omega" unicode="&#x3a9;" horiz-adv-x="416" 
d="M411 591h-15q-44 0 -44 -50v-64h56v-78h-53v-399h-89v399h-44v78h44v46q0 143 121 143h24v-75zM203 591h-15q-44 0 -44 -50v-64h56v-78h-53v-399h-89v399h-44v78h44v46q0 143 121 143h24v-75z" />
    <glyph glyph-name="pi" unicode="&#x3c0;" horiz-adv-x="611" 
d="M592 319q0 -120 -82.5 -204t-204.5 -84t-204 84t-82 204t82 204.5t204 84.5t204.5 -84.5t82.5 -204.5zM547 319q0 104 -68 175.5t-174 71.5q-105 0 -173 -71.5t-68 -175.5t68 -175.5t173 -71.5q106 0 174 71.5t68 175.5zM411 359q0 -70 -77 -70h-55v-99h-49v262h104
q77 0 77 -67v-26zM361 358v27q0 30 -32 30h-50v-87h50q32 0 32 30z" />
    <glyph glyph-name="endash" unicode="&#x2013;" horiz-adv-x="450" 
d="M388 271h-325v75h325v-75z" />
    <glyph glyph-name="emdash" unicode="&#x2014;" horiz-adv-x="675" 
d="M613 271h-550v75h550v-75z" />
    <glyph glyph-name="quoteleft" unicode="&#x2018;" horiz-adv-x="138" 
d="M27 569q0 43 23.5 70.5t65.5 27.5v-26q-44 0 -44 -60h39v-118h-84v106z" />
    <glyph glyph-name="quoteright" unicode="&#x2019;" horiz-adv-x="138" 
d="M111 560q0 -43 -23.5 -70.5t-65.5 -27.5v26q44 0 44 60h-39v118h84v-106z" />
    <glyph glyph-name="quotesinglbase" unicode="&#x201a;" horiz-adv-x="138" 
d="M111 11q0 -43 -23.5 -70t-65.5 -27v26q44 0 44 60h-39v118h84v-107z" />
    <glyph glyph-name="quotedblleft" unicode="&#x201c;" horiz-adv-x="249" 
d="M138 569q0 43 23.5 70.5t65.5 27.5v-26q-44 0 -44 -60h38v-118h-83v106zM27 569q0 43 23.5 70.5t65.5 27.5v-26q-44 0 -44 -60h39v-118h-84v106z" />
    <glyph glyph-name="quotedblright" unicode="&#x201d;" horiz-adv-x="249" 
d="M221 560q0 -44 -23 -71t-66 -27v26q45 0 45 60h-39v118h83v-106zM111 560q0 -43 -23.5 -70.5t-65.5 -27.5v26q44 0 44 60h-39v118h84v-106z" />
    <glyph glyph-name="quotedblbase" unicode="&#x201e;" horiz-adv-x="249" 
d="M221 11q0 -43 -23 -70t-66 -27v26q45 0 45 60h-39v118h83v-107zM111 11q0 -43 -23.5 -70t-65.5 -27v26q44 0 44 60h-39v118h84v-107z" />
    <glyph glyph-name="dagger" unicode="&#x2020;" horiz-adv-x="322" 
d="M312 430q0 -11 -12 -11q-78 0 -118 11q11 -40 11 -176q0 -246 -9 -314q0 -12 -10 -12h-26q-11 0 -11 12q-7 79 -7 314q0 135 10 176q-40 -11 -118 -11q-12 0 -12 11v40q0 9 12 9q78 0 118 -9q-10 35 -10 184q0 12 10 12h42q11 0 11 -12q0 -144 -10 -184q39 9 117 9
q12 0 12 -9v-40z" />
    <glyph glyph-name="daggerdbl" unicode="&#x2021;" horiz-adv-x="322" 
d="M312 120q0 -10 -12 -10q-80 0 -117 10q10 -41 10 -184q0 -12 -11 -12h-42q-10 0 -10 12q0 148 10 184q-39 -10 -118 -10q-12 0 -12 10v40q0 10 12 10q77 0 118 -10q-10 41 -10 133q0 91 10 132q-40 -11 -118 -11q-12 0 -12 11v40q0 10 12 10q79 0 118 -10q-10 36 -10 184
q0 13 10 13h42q11 0 11 -13q0 -143 -10 -184q38 10 117 10q12 0 12 -10v-40q0 -11 -12 -11q-78 0 -118 11q11 -40 11 -132q0 -93 -11 -133q41 10 118 10q12 0 12 -10v-40z" />
    <glyph glyph-name="bullet" unicode="&#x2022;" horiz-adv-x="247" 
d="M227 333q0 -48 -29 -76.5t-74 -28.5q-46 0 -75 28t-29 77q0 48 29 76t75 28q45 0 74 -28t29 -76z" />
    <glyph glyph-name="ellipsis" unicode="&#x2026;" horiz-adv-x="432" 
d="M400 0h-84v118h84v-118zM258 0h-84v118h84v-118zM115 0h-83v118h83v-118z" />
    <glyph glyph-name="perthousand" unicode="&#x2030;" horiz-adv-x="708" 
d="M202 432q0 -43 -25 -68.5t-64 -25.5q-38 0 -63 25.5t-25 68.5v152q0 43 25 68.5t63 25.5q39 0 64 -25.5t25 -68.5v-152zM452 658l-370 -678l-36 26l370 679zM688 80q0 -43 -24.5 -68.5t-63.5 -25.5q-38 0 -63 25.5t-25 68.5v153q0 43 24.5 68t63.5 25t63.5 -25t24.5 -68
v-153zM472 80q0 -43 -24.5 -68.5t-63.5 -25.5q-38 0 -63 25.5t-25 68.5v153q0 43 24.5 68t63.5 25t63.5 -25t24.5 -68v-153zM143 419v178q0 13 -8.5 21.5t-21.5 8.5q-12 0 -20 -8.5t-8 -21.5v-178q0 -13 8 -21.5t20 -8.5q13 0 21.5 8.5t8.5 21.5zM629 67v179q0 13 -8 21
t-21 8t-21 -8t-8 -21v-179q0 -13 8 -21t21 -8t21 8t8 21zM414 67v179q0 13 -8.5 21t-21.5 8t-21 -8t-8 -21v-179q0 -13 8 -21t21 -8t21.5 8t8.5 21z" />
    <glyph glyph-name="guilsinglleft" unicode="&#x2039;" horiz-adv-x="206" 
d="M180 0h-42q-22 122 -118 162v63q96 40 118 162h42q0 -135 -73 -194q73 -59 73 -193z" />
    <glyph glyph-name="guilsinglright" unicode="&#x203a;" horiz-adv-x="206" 
d="M185 162q-46 -19 -76.5 -61.5t-41.5 -100.5h-41q0 134 73 193q-73 59 -73 194h41q11 -58 41.5 -100.5t76.5 -61.5v-63z" />
    <glyph glyph-name="fraction" unicode="&#x2044;" horiz-adv-x="94" 
d="M317 711l-498 -784l-40 28l498 783z" />
    <glyph glyph-name="trademark" unicode="&#x2122;" horiz-adv-x="487" 
d="M451 442h-41v182l-16 -63l-37 -119h-39l-36 119l-16 63v-182h-40v224h61l37 -124l14 -59l16 59l34 124h63v-224zM186 629h-63v-187h-44v187h-63v37h170v-37z" />
    <glyph glyph-name="product" unicode="&#x220f;" horiz-adv-x="364" 
d="M247 0l-69 274h-34v-274h-107v666h173q59 0 94 -33.5t35 -100.5v-125q0 -85 -65 -111l19 -74q19 -74 37 -148l19 -74h-102zM144 359h52q41 0 41 46v126q0 43 -36 43h-57v-215z" />
    <glyph glyph-name="radical" unicode="&#x221a;" horiz-adv-x="573" 
d="M539 0h-89v666h89v-666zM411 591h-15q-44 0 -44 -50v-64h56v-78h-53v-399h-89v399h-44v78h44v46q0 143 121 143h24v-75zM203 591h-15q-44 0 -44 -50v-64h56v-78h-53v-399h-89v399h-44v78h44v46q0 143 121 143h24v-75z" />
    <glyph glyph-name="approxequal" unicode="&#x2248;" horiz-adv-x="573" 
d="M537 541h-85v93h85v-93zM411 591h-15q-44 0 -44 -50v-64h56v-78h-53v-399h-89v399h-44v78h44v46q0 143 121 143h24v-75zM203 591h-15q-44 0 -44 -50v-64h56v-78h-53v-399h-89v399h-44v78h44v46q0 143 121 143h24v-75zM539 0h-89v479h89v-479z" />
    <glyph glyph-name="notequal" unicode="&#x2260;" horiz-adv-x="507" 
d="M483 0h-459v480h459v-480z" />
    <glyph glyph-name="lessequal" unicode="&#x2264;" horiz-adv-x="345" 
d="M291 120l-244 112v13l244 112v-237z" />
    <glyph glyph-name="greaterequal" unicode="&#x2265;" horiz-adv-x="345" 
d="M303 232l-244 -112v237l244 -112v-13z" />
    <glyph glyph-name="apple" unicode="&#xf8ff;" horiz-adv-x="967" 
d="M868 0h-767v750h767v-750zM859 -104h-6l-3 20l-10 -21h-2l-10 21l-3 -20h-6l6 34h1l13 -26l13 26h1zM806 -87q0 -18 -17 -18q-7 0 -12 5t-5 12q0 18 18 18q7 0 11.5 -5t4.5 -12zM758 -96l-1 -6q-3 -3 -10 -3q-18 0 -18 17q0 8 5.5 13t12.5 5t11 -3l-2 -5q-3 3 -9 3
q-12 0 -12 -12q0 -13 13 -13q4 0 10 4zM702 -71l-13 -19v-14h-6v14l-14 19l6 1l11 -15l9 14h7zM656 -104h-6v15h-16v-15h-6v33h6v-13h16v13h6v-33zM612 -82q0 -12 -17 -12v-10h-6v33q23 3 23 -11zM576 -104h-6l-4 8h-14l-3 -8h-6l15 34h2zM534 -104h-7l-8 11h-5v-11h-6v33
q23 3 23 -10q0 -7 -7 -10zM491 -101q-6 -4 -13 -4q-18 0 -18 17q0 8 5.5 13t13.5 5q6 0 12 -4l-2 -5q-4 4 -11 4q-12 0 -12 -13q0 -12 13 -12q2 0 6 2v7h-9v5h15v-15zM447 -87q0 -18 -17 -18q-7 0 -12 5t-5 12q0 18 18 18q7 0 11.5 -5t4.5 -12zM400 -82q0 -12 -17 -12v-10
h-6v33q23 3 23 -11zM364 -71l-13 -19v-14h-6v14l-14 19l6 1l11 -15l9 14h7zM323 -71v-5h-12v-28h-6v28h-12v5h30zM267 -71l-12 -34h-1l-11 23l-10 -23h-1l-12 34l6 1l7 -23l10 23h1l10 -23l7 22h6zM211 -71l-12 -34h-1l-11 23l-10 -23h-1l-12 34l6 1l7 -23l10 23h1l10 -23
l7 22h6zM155 -71l-12 -34h-1l-11 23l-10 -23h-1l-12 34l6 1l7 -23l10 23h1l10 -23l7 22h6zM716 -101q0 -4 -4 -4t-4 4t4 4t4 -4zM284 -101q0 -4 -4 -4t-4 4t4 4t4 -4zM559 686q0 8 -1 12q-2 -1 -17 -1t-18 1l-1 -12h2q4 9 10 9q3 0 3 -3v-23q-1 -5 -5 -5v-2h17v2l-4 2
q-1 1 -1 3v23q0 3 3 3t5.5 -2.5t3.5 -4.5l1 -2h2zM504 662v2q-6 -1 -6 5v21l6 5v2h-18v-1v-1l4 -2q1 -1 1 -3v-9h-17v9q1 5 5 5v1v1h-17v-2l4 -2q1 -1 1 -3v-21l-5 -5v-2h17v2q-5 0 -5 5v10h17v-10q-1 -5 -5 -5v-2h18zM439 664l-4 2q-1 1 -1 3v21q1 5 5 5v2h-29l-2 -10l2 -1
q3 8 9 8h4q4 0 4 -3v-10h-4l-6 5h-2v-13h2q0 6 6 6h4v-11q0 -3 -4 -3h-4q-3 0 -5.5 2.5t-3.5 4.5l-1 2l-2 -1l2 -11h30v2zM827 618v6h-685v-6h685zM696 540q0 15 -11.5 26.5t-25.5 11.5q-8 0 -15.5 -5.5t-7.5 -16.5q0 -16 11 -27t26 -11q8 0 15.5 5.5t7.5 16.5zM589 537
q0 12 -14 17q5 3 5 9q0 15 -21 15q-13 0 -13 -11q0 -6 5 -6q4 0 4 3q0 2 -1.5 3.5t-1.5 2.5q0 5 7 5q10 0 10 -12q0 -4 -2 -6q-16 2 -16 -6q0 -6 8 -6q6 0 11 5q6 -4 6 -15q0 -14 -12 -14t-12 9q0 3 3 3l1 -1q2 -1 4 -1q4 0 4 5t-7 5q-9 0 -9 -10q0 -13 16 -13q25 0 25 19z
M295 537q0 12 -14 17q5 3 5 9q0 15 -21 15q-13 0 -13 -11q0 -6 5 -6q4 0 4 3q0 2 -1.5 3.5t-1.5 2.5q0 5 7 5q10 0 10 -12q0 -4 -2 -6q-16 2 -16 -6q0 -6 8 -6q6 0 11 5q6 -4 6 -15q0 -14 -12 -14t-12 9q0 3 3 3l1 -1q2 -1 4 -1q4 0 4 5t-7 5q-9 0 -9 -10q0 -13 16 -13
q25 0 25 19zM820 522q-8 -1 -10 8l-7 35q-1 4 1 6t4 2h2l-1 3h-28l1 -3q7 1 9 -8l3 -15h-24l-3 15q-1 4 1 6t4 2h2l-1 3h-29l1 -3q8 1 10 -8l7 -35q1 -4 -1 -6t-4 -2h-2l1 -3h29l-1 3q-8 -1 -10 8l-3 16h24l3 -16q1 -4 -1 -6t-4 -2h-2l1 -3h29zM498 519l-1 3q-8 -1 -10 8
l-7 35q-1 4 1 6t4 2h2l-1 3h-45v-17h4q-1 13 13 13h4q5 0 6 -6l3 -16h-4q-4 0 -7 2t-4 4l-1 3h-3l5 -23h3q-1 11 8 11h4l3 -17q1 -4 -1 -6t-4 -2h-2l1 -3h29zM202 522q-8 -1 -10 8l-7 35q-1 4 1 6t4 2h2l-1 3h-27q-20 0 -20 -15q0 -13 19 -15l-9 -16q-2 -4 -5.5 -6t-6.5 -2
h-2l1 -3h19l12 23q2 3 5 3l3 -15q1 -4 -1 -6t-4 -2h-2l1 -3h29zM400 521q0 8 -13 9q-4 2 -5 14.5t-5.5 23t-18.5 10.5q-5 0 -9 -3.5t-4 -6.5q0 -5 5 -5q4 0 4 6t5 6t7 -8t4.5 -19.5t9.5 -17.5q-8 0 -14 -6.5t-9 -6.5q-5 0 -5 4q0 2 1 3t1 2q0 5 -5 5t-5 -7q0 -4 5 -8t10 -4
q10 0 15 6.5t10 6.5q4 -7 12 -7q4 0 4 3zM827 475v6h-685v-6h685zM827 378v62h-147v-62h36v28h11v-65h-14v-33h81v33h-14v65h11v-28h36zM648 406v34h-81v-34h11l-15 -23l-15 23h10v34h-62v-34h12l37 -46v-19h-14v-33h81v33h-15v20l37 45h14zM458 308v33h-14v65h14v34h-96
q-21 0 -34 -11.5t-13 -28.5q0 -18 13 -29t34 -11h30v-19h-15v-33h81zM283 308v33h-14v65h14v34h-141v-62h41v28h33v-20h-24v-24h24v-21h-33v28h-41v-61h141zM827 271v6h-685v-6h685zM728 192q0 15 -11.5 26.5t-25.5 11.5q-8 0 -15.5 -5.5t-7.5 -16.5q0 -16 11 -27t26 -11
q8 0 15.5 5.5t7.5 16.5zM203 217q-7 13 -18 13q-15 0 -14 -23q-7 23 -21 23q-12 0 -12 -12l3 -1q0 6 8 6q16 0 24 -33q2 -8 0.5 -11.5t-3.5 -3.5h-3l1 -4h28l-1 4q-7 -2 -10 9q-5 17 -5 25q0 13 9 13q5 0 12 -7zM823 171l-1 3q-8 -1 -10 8l-7 35q-1 4 1 6t4 2h2l-1 3h-45
v-17h4q-1 13 13 13h4q5 0 6 -6l3 -16h-4q-4 0 -7 2t-4 4l-1 3h-3l5 -23h3q-1 11 8 11h4l3 -17q1 -4 -1 -6t-4 -2h-2l1 -3h29zM621 225l-1 3h-29l1 -3q8 1 10 -9l5 -21q5 -20 -11 -20q-14 0 -20 22l-4 19q-1 5 1 7t4 2h2v3h-24l1 -3q9 1 11 -9l4 -19q5 -27 28 -27q24 0 19 24
l-5 22q-1 5 1 7t4 2h3zM522 174q-6 0 -9 10l-7 32q-1 4 1 6.5t5 2.5h2l-1 3h-14l-29 -42l-5 30q-1 4 1 6t4 2l2 1l-1 3h-21l1 -3q7 0 9 -9l8 -45l3 -1l30 44l6 -30q1 -5 -0.5 -7.5t-3.5 -2.5h-2l1 -3h21zM414 171l-1 4q-7 -2 -10 9l-8 31q-3 9 8 10l-1 3h-30q-25 0 -25 -22
q0 -15 11 -25t24 -10h32zM306 174q-8 -1 -10 8l-7 35q-1 4 1 6t4 2h2l-1 3h-27q-20 0 -20 -15q0 -13 19 -15l-9 -16q-2 -4 -5.5 -6t-6.5 -2h-2l1 -3h19l12 23q2 3 5 3l3 -15q1 -4 -1 -6t-4 -2h-2l1 -3h29zM827 127v6h-685v-6h685zM694 46v2q-6 1 -6 5v20l6 6v2h-10l-24 -26
v18q0 2 1.5 3.5t2.5 1.5l2 1v2h-15v-2q6 -1 6 -6v-28h3l25 28v-20l-5 -5v-2h14zM633 48l-4 2q-1 1 -1 3v21q1 5 5 5v2h-29l-2 -10l2 -1q3 8 9 8h4q4 0 4 -3v-10h-4l-6 5h-2v-13h2q0 6 6 6h4v-11q0 -3 -4 -3h-4q-3 0 -5.5 2.5t-3.5 4.5l-1 2l-2 -1l2 -11h30v2zM583 81h-15v-2
l2 -5l-9 -19l-5 10l4 8l6 6v2h-26l1 -2q3 0 7 -6l3 -5l-7 -13l-8 18l2 6v2h-13v-2q4 -1 6 -6l13 -27h1q1 -1 1 0l8 16l9 -16h1l12 27q1 3 3 4.5t3 1.5h1v2zM480 79v2h-15v-2l1 -5l-6 -9l-6 9l3 5v2h-15v-2q5 0 8 -5l8 -12v-8l-5 -6v-2h17v2q-5 0 -5 6v8l8 12zM425 64
q0 18 -20 18t-20 -18q0 -19 20 -19t20 19zM364 46v2q-5 0 -5 5v20l5 6v2h-18q-13 0 -13 -9q0 -5 9 -9l-7 -10l-8 -5v-2h11l7 12q3 4 7 4v-9l-5 -5v-2h17zM309 46v2q-6 1 -6 6v20l6 5v2h-18v-2q6 0 6 -5v-9q-2 0 -4 2l-8 8l1 4v2h-14v-2q5 -1 8 -4l10 -9l-13 -13l-7 -5v-2h17
v2l-2 5l8 8q2 2 4 2v-9q0 -3 -1.5 -4.5t-3.5 -1.5h-1v-2h18zM606 -83q0 8 -11 7v-13q11 0 11 6zM525 -82q0 8 -11 6v-12q11 -1 11 6zM394 -83q0 8 -11 7v-13q11 0 11 6zM564 -92l-5 12l-5 -12h10zM800 -88q0 13 -11 13t-11 -12q0 -13 11 -13t11 12zM441 -88q0 13 -11 13
t-11 -12q0 -13 11 -13t11 12zM176 548h-5q-15 0 -15 15q0 9 8 9t9 -5zM566 553q-3 -4 -7 -4t-4 2q0 3 4 3q5 0 7 -1zM272 553q-3 -4 -7 -4t-4 2q0 3 4 3q5 0 7 -1zM684 535q0 -13 -11 -13q-9 0 -17 11.5t-8 26.5q0 14 11 14q9 0 17 -12t8 -27zM392 384h-11q-13 0 -13 11
t13 11h11v-22zM280 200h-5q-15 0 -15 15q0 9 8 9t9 -5zM716 187q0 -13 -11 -13q-9 0 -17 11.5t-8 26.5q0 14 11 14q9 0 17 -12t8 -27zM393 182q0 -7 -4 -7h-5q-11 0 -18.5 10t-7.5 22q0 17 14 17h6q4 -1 6 -7zM553 79q5 0 0 -9q-5 9 0 9zM352 64h-3q-8 0 -8 8q0 6 7 6
q4 0 4 -4v-10zM417 64q0 -17 -12 -17t-12 17q0 16 12 16t12 -16z" />
    <glyph glyph-name="fi" unicode="&#xfb01;" horiz-adv-x="366" 
d="M329 541h-84v93h84v-93zM200 399h-52v-399h-90v399h-44v78h44v46q0 143 121 143h24v-75h-14q-44 0 -44 -50v-64h55v-78zM332 0h-90v480h90v-480z" />
    <glyph glyph-name="fl" unicode="&#xfb02;" horiz-adv-x="366" 
d="M332 0h-90v666h90v-666zM200 399h-52v-399h-90v399h-44v78h44v46q0 143 121 143h24v-75h-14q-44 0 -44 -50v-64h55v-78z" />
    </font>
</defs>
</svg>
